أخي:

اسمح لي بأن أحييك .. وأرحب بك
فكم يسرنا ويسعدنا انضمامك لعائلتنا المتواضعة
التي لطالما ضمها منتدانا الغالي على قلوبنا
وكم يشرفني أن أقدم لك .. أخـوتنا وصداقـتـنا
التي تتسم بالطهر والمشاعر الصادقة
التي تنبع من قلوب مشرفيّ وأعضاء
هذا المنتدى السامي
أهــلا بك




 
الرئيسيةاليوميةس .و .جبحـثالأعضاءالمجموعاتالتسجيلدخول

شاطر | 
 

 حصريا فيلم sherlock holmes dvdscr

استعرض الموضوع السابق استعرض الموضوع التالي اذهب الى الأسفل 
كاتب الموضوعرسالة
yassin_smart
المدير العام
المدير العام
avatar

البلد :
عدد المساهمات : 113
نقاط : 14819
تاريخ التسجيل : 30/11/2009


الموقع : www.arabsoft.ba7r.org

مُساهمةموضوع: حصريا فيلم sherlock holmes dvdscr   الخميس يناير 21, 2010 1:18 pm





sherlock holmes
2009











Format : AVI
Format/Info : Audio Video Interleave
File size : 1.36 GiB
Duration : 2h 8mn
Overall bit rate : 1 517 Kbps
Writing application : VirtualDubMod 1.5.10.2 (build 2542/release)
Writing library : VirtualDubMod build 2542/release
Original source form : MAX TORRENTZ
Copyright : SIGISMUNT

Video

Format : xvid
Codec ID : xvid
Duration : 2h 8mn
Bit rate : 1 376 Kbps
Width : 704 pixels
Height : 384 pixels
Display aspect ratio : 16:9
Frame rate : 23.976 fps
Resolution : 24 bits
Bits/(Pixel*Frame) : 0.212
Stream size : 1.23 GiB (91%)

Audio

ID : 1
Format : MPEG Audio
Format version : Version 1
Format profile : Layer 3
Codec ID : 55
Codec ID/Hint : MP3
Duration : 2h 8mn
Bit rate mode : Constant
Bit rate : 128 Kbps
Channel(s) : 2 channels
Sampling rate : 48.0 KHz
Resolution : 16 bits
Stream size : 118 MiB (8%)
Alignment : Aligned on interleaves
Interleave, duration : 24 ms (0.58 video frame)
Interleave, preload duration : 504 ms



4shared

http://1tool.biz/247438

_______________________________________


كيف تدخل الصور في مواضيعك

الرجوع الى أعلى الصفحة اذهب الى الأسفل
 
حصريا فيلم sherlock holmes dvdscr
استعرض الموضوع السابق استعرض الموضوع التالي الرجوع الى أعلى الصفحة 
صفحة 1 من اصل 1

صلاحيات هذا المنتدى:لاتستطيع الرد على المواضيع في هذا المنتدى
 :: منتديات الفنون :: قسم الأفلام-
انتقل الى: